<?xml version="1.0" standalone="no"?>
<!DOCTYPE svg PUBLIC "-//W3C//DTD SVG 1.1//EN" "http://www.w3.org/Graphics/SVG/1.1/DTD/svg11.dtd" >
<svg xmlns="http://www.w3.org/2000/svg" xmlns:xlink="http://www.w3.org/1999/xlink" version="1.1">
<metadata>
Created by FontForge 20170731 at Fri Jan  1 02:30:17 1904
 By Aleksey,,,
Copyright c 1992 by CC Font ManipSystems
</metadata>
<defs>
<font id="GillSansBold" horiz-adv-x="926" >
  <font-face 
    font-family="Gill_Sans-Bold"
    font-weight="400"
    font-stretch="normal"
    units-per-em="2048"
    panose-1="2 11 5 0 0 0 0 0 0 0"
    ascent="1638"
    descent="-410"
    x-height="914"
    cap-height="1422"
    bbox="-357 -518 2204 1837"
    underline-thickness="50"
    underline-position="-175"
    unicode-range="U+0020-203A"
  />
<missing-glyph horiz-adv-x="1536" 
d="M256 0v1280h1024v-1280h-1024zM1248 32v1216h-960v-1216h960z" />
    <glyph glyph-name=".notdef" horiz-adv-x="1536" 
d="M256 0v1280h1024v-1280h-1024zM1248 32v1216h-960v-1216h960z" />
    <glyph glyph-name=".null" horiz-adv-x="0" 
 />
    <glyph glyph-name="nonmarkingreturn" horiz-adv-x="0" 
 />
    <glyph glyph-name="space" unicode=" " horiz-adv-x="524" 
 />
    <glyph glyph-name="exclam" unicode="!" horiz-adv-x="391" 
d="M209 328q-81 0 -126 -53q-46 -52 -46 -123t46 -124t128 -53q80 0 123 52q43 50 43 121q0 72 -44.5 126t-123.5 54zM168 436h90q14 95 47 260t45 250q2 23 7 65t8.5 81.5t3.5 79.5q0 258 -164 258q-77 0 -119.5 -54.5t-42.5 -158.5q0 -162 26.5 -329t76.5 -353z" />
    <glyph glyph-name="quotedbl" unicode="&#x22;" horiz-adv-x="789" 
d="M115 1090v-8v-9q0 -76 -19 -126q-18 -51 -67 -103v-72q92 8 171 67q80 58 126 148q47 89 47 185q0 72 -26.5 130.5t-71.5 90.5q-46 33 -103 33q-76 0 -119 -49t-43 -117q0 -54 27 -100.5t78 -69.5zM519 1090v-8v-9q0 -76 -18 -126t-64 -103l-1 -72q93 8 172.5 66.5
t126 148.5t46.5 185q0 110 -59.5 182t-145.5 72q-77 0 -117 -47t-40 -113q0 -55 26 -104q27 -48 74 -72z" />
    <glyph glyph-name="dollar" unicode="$" horiz-adv-x="875" 
d="M33 340v-307q164 -58 363 -58v-145h122v166q80 13 144 50q65 37 113 95t74 131q26 74 26 156q0 111 -29 180q-30 70 -106 124q-76 55 -222 116q-97 38 -136 79q-40 42 -40 99q0 68 47 105t129 37q156 0 294 -86v305q-98 33 -155 47.5t-139 19.5v142h-122v-150
q-154 -30 -232 -92q-77 -56 -121.5 -156t-44.5 -207q0 -172 109 -278q80 -77 266 -160q124 -47 150 -86q18 -36 18 -74q0 -61 -48.5 -102t-119.5 -41q-57 0 -113 13t-108 32t-119 45z" />
    <glyph glyph-name="percent" unicode="%" horiz-adv-x="1448" 
d="M357 1434q-76 0 -146.5 -28t-116.5 -77q-46 -46 -72 -119t-26 -153q0 -193 123 -289q80 -80 231 -80q167 0 263 93q106 115 106 272q0 98 -45 186t-127.5 141.5t-189.5 53.5zM51 8h197l297 369l827 1036h-180l-303 -366zM357 1284q73 0 114 -65.5t41 -155.5
q0 -91 -41.5 -157.5t-113.5 -66.5q-74 0 -115.5 66.5t-41.5 157.5q0 89 41.5 155t115.5 66zM1082 735q-76 0 -148 -26.5t-119 -73.5q-96 -115 -96 -278q0 -186 125 -285q92 -80 240 -80q164 0 258 100q106 107 106 258q0 97 -46.5 187t-130.5 144t-189 54zM1082 582
q71 0 111 -64t40 -153t-40.5 -156t-110.5 -67q-71 0 -111.5 66t-40.5 155q0 88 40.5 153.5t111.5 65.5z" />
    <glyph glyph-name="ampersand" unicode="&#x26;" horiz-adv-x="1448" 
d="M926 129l125 -129h405l-323 324q167 183 235 379h-295q-56 -124 -122 -193l-205 209q146 93 206 177.5t60 193.5q0 81 -32 145q-31 63 -86.5 105t-124.5 63t-146 21q-107 0 -203 -41.5t-155.5 -122.5t-59.5 -195q0 -190 137 -321q-330 -160 -330 -400q0 -106 60 -190
q58 -84 162.5 -131.5t234.5 -47.5q131 0 245 38.5t212 115.5zM756 305q-58 -53 -110.5 -75.5t-123.5 -22.5q-91 0 -144 43.5t-53 118.5q0 56 34 101.5t123 107.5zM588 877q-48 36 -79.5 89.5t-31.5 110.5q0 64 42.5 100t99.5 36q34 0 66 -15.5t51 -44.5q20 -30 20 -71
q0 -51 -38 -96t-130 -109z" />
    <glyph glyph-name="quotesingle" unicode="'" horiz-adv-x="391" 
d="M119 1090v-8v-9q0 -75 -18 -122t-68 -107v-72q97 12 176 68q79 57 123.5 145t44.5 191q0 70 -26 127t-73 90t-106 33q-75 0 -117.5 -50t-42.5 -118q0 -54 28 -100.5t79 -67.5z" />
    <glyph glyph-name="parenleft" unicode="(" horiz-adv-x="482" 
d="M248 0h238q-63 114 -92.5 184t-50.5 160q-35 185 -35 342q0 380 182 736h-228q-245 -333 -245 -711q0 -188 59 -359q60 -170 172 -352z" />
    <glyph glyph-name="parenright" unicode=")" horiz-adv-x="482" 
d="M-4 1422q184 -320 184 -711q0 -385 -180 -711h236q88 133 137 234q94 208 94 454q0 402 -244 734h-227z" />
    <glyph glyph-name="asterisk" unicode="*" horiz-adv-x="613" 
d="M0 1159l70 -137l162 107v-195h141v195l162 -103l74 133l-176 84l180 86l-68 142l-172 -105v195h-141v-195l-170 105l-62 -138l176 -98z" />
    <glyph glyph-name="comma" unicode="," horiz-adv-x="391" 
d="M119 -21q0 -148 -86 -250v-69q93 8 172 66q80 57 126 146t46 184q0 72 -26 130.5t-72 92t-103 33.5q-74 0 -119 -55t-45 -126q0 -52 27 -93.5t80 -58.5z" />
    <glyph glyph-name="hyphen" unicode="-" horiz-adv-x="568" 
d="M16 324h533v291h-533v-291z" />
    <glyph glyph-name="period" unicode="." horiz-adv-x="391" 
d="M197 316q-81 0 -127 -52q-45 -52 -45 -124q0 -71 46 -124q47 -53 130 -53q78 0 121 50.5t43 121.5q0 73 -45 127q-44 54 -123 54z" />
    <glyph glyph-name="slash" unicode="/" horiz-adv-x="836" 
d="M0 0h185l176 387l475 1035h-201l-174 -388z" />
    <glyph glyph-name="zero" unicode="0" horiz-adv-x="1012" 
d="M21 627q0 -104 18 -199.5t53.5 -173t83.5 -127.5q63 -63 154.5 -98t187.5 -35q201 0 322 133q76 76 116 208t40 292v192q0 114 -30 226.5t-90 205t-153 148t-213 55.5q-159 0 -270 -93t-165 -239t-54 -303v-192zM510 1192q77 0 118.5 -46.5t53.5 -147.5q21 -125 21 -285
q0 -135 -16 -229q-8 -99 -49 -168.5t-128 -69.5q-79 0 -121 51.5t-56 129.5q-13 77 -13 171q0 27 1 71q1 45 1 58q0 181 17 281q18 99 58.5 141.5t112.5 42.5z" />
    <glyph glyph-name="one" unicode="1" horiz-adv-x="391" 
d="M51 0v1422h291v-1422h-291z" />
    <glyph glyph-name="two" unicode="2" horiz-adv-x="963" 
d="M-4 0h965v283h-454q223 256 305 412q78 149 78 307q0 185 -109 309q-139 133 -347 133q-198 0 -405 -119v-270q169 129 321 129q70 0 125.5 -30t86.5 -83.5t31 -119.5q0 -86 -32 -165t-91 -175q-111 -174 -227 -326q-116 -151 -247 -285z" />
    <glyph glyph-name="three" unicode="3" horiz-adv-x="789" 
d="M-13 56v239q91 -42 148 -58t113 -16q107 0 172.5 57.5t65.5 149.5q0 93 -69.5 144t-162.5 51q-14 0 -43 -4v254q22 -8 49 -8q75 0 132 57q57 58 57 133q0 76 -54 119q-53 43 -147 43q-55 0 -105 -13q-51 -15 -156 -57v244q0 1 91 25q95 24 106 26q67 12 142 12
q116 0 211.5 -48.5t150 -134.5t54.5 -194q0 -215 -186 -305q108 -54 168.5 -151.5t60.5 -206.5q0 -162 -119 -287q-137 -137 -363 -137q-153 0 -316 66z" />
    <glyph glyph-name="four" unicode="4" horiz-adv-x="963" 
d="M4 316h539v-316h285v316h129v233h-129v873h-211l-613 -875v-231zM244 549l295 422v-422h-295z" />
    <glyph glyph-name="five" unicode="5" horiz-adv-x="836" 
d="M-4 37v264q58 -27 106 -44t89 -24t88 -7q100 0 167.5 55t67.5 139q0 109 -77 157t-193 48q-89 0 -182 -27v824h684v-271h-424v-291q32 4 69 4q79 0 159 -30q81 -31 143.5 -87t99.5 -136q35 -80 35 -175q0 -151 -76 -252q-75 -102 -198 -148q-122 -48 -263 -48
q-80 0 -168 16q-31 5 -127 33z" />
    <glyph glyph-name="six" unicode="6" horiz-adv-x="963" 
d="M445 895l297 535h-301l-201 -336q-104 -175 -169 -332.5t-65 -306.5q0 -200 144 -340q121 -128 317 -128q103 0 200 39q98 39 165 107q125 128 125 338q0 96 -28.5 182t-84.5 150q-101 107 -276 107q-70 0 -123 -15zM494 682q59 0 101 -32t62.5 -83t20.5 -110
q0 -96 -50 -166t-138 -70q-87 0 -135 66.5t-48 159.5q0 94 50 164.5t137 70.5z" />
    <glyph glyph-name="seven" unicode="7" 
d="M-8 1147v275h954l-559 -1447l-258 89l414 1083h-551z" />
    <glyph glyph-name="eight" unicode="8" horiz-adv-x="963" 
d="M721 735q95 55 152 137t57 185q0 122 -63.5 208.5t-167.5 130.5t-220 44t-217 -43t-163 -129q-62 -85 -62 -207q0 -194 203 -326q-227 -125 -227 -352q0 -126 67 -217.5t176.5 -138t229.5 -46.5q121 0 228.5 45.5t174 136.5t66.5 220q0 115 -64.5 210.5t-169.5 141.5z
M482 627q51 0 88.5 -32t56 -84t18.5 -109q0 -88 -42 -151.5t-117 -63.5q-82 0 -126.5 65t-44.5 154q0 88 45 155q43 66 122 66zM482 1231q75 0 116 -58.5t41 -140.5q0 -80 -41 -140.5t-112 -60.5q-77 0 -119 61q-44 59 -44 140q0 80 42.5 139.5t116.5 59.5z" />
    <glyph glyph-name="nine" unicode="9" horiz-adv-x="963" 
d="M510 522l-106 -8q-112 0 -202.5 57.5t-142 158.5t-51.5 225q0 138 61.5 250.5t172.5 176.5t248 64t242.5 -72t163 -190t57.5 -250q0 -118 -47 -221q-61 -162 -185 -377l-194 -336h-312zM473 1204q-89 0 -140 -70q-53 -70 -53 -165q0 -91 50.5 -158t138.5 -67q86 0 134 70
q49 70 49 163t-47.5 160t-131.5 67z" />
    <glyph glyph-name="colon" unicode=":" horiz-adv-x="436" 
d="M244 315q-56 0 -95 -24.5t-58 -65.5q-21 -41 -21 -88q0 -69 46 -121q47 -53 128 -53q80 0 126 52t46 122q0 74 -46 126t-126 52zM240 951q-80 0 -125 -52q-45 -51 -45 -123q0 -73 47.5 -127.5t130.5 -54.5q80 0 124 51t44 123q0 73 -47 128t-129 55z" />
    <glyph glyph-name="semicolon" unicode=";" horiz-adv-x="436" 
d="M164 -21v-12v-8q0 -74 -18.5 -124t-67.5 -106v-69q94 8 175 65.5t128 146.5t47 184q0 110 -59.5 182.5t-149.5 72.5q-73 0 -117 -52q-45 -54 -45 -124q0 -52 28 -94q28 -44 79 -62zM232 951q-79 0 -123 -53q-46 -53 -46 -124q0 -73 46 -126.5t127 -53.5q80 0 124 52.5
t44 123.5q0 73 -45.5 127t-126.5 54z" />
    <glyph glyph-name="less" unicode="&#x3c;" horiz-adv-x="836" 
d="M-17 445l296 -389h252l-304 389l308 411h-256zM297 445l283 -389h260l-295 389l307 411h-260z" />
    <glyph glyph-name="greater" unicode="&#x3e;" horiz-adv-x="836" 
d="M-8 856l305 -411l-297 -389h262l283 389l-297 411h-256zM309 856l304 -411l-299 -389h249l281 389l-281 411h-254z" />
    <glyph glyph-name="question" unicode="?" horiz-adv-x="613" 
d="M20 1133q26 20 70 34q43 15 82 15q51 0 82.5 -27.5t31.5 -85.5q0 -54 -71 -188q-62 -116 -62 -217q0 -113 79 -244h98q-2 14 -2 41q0 81 32 150t96.5 166t98 169t33.5 156q0 106 -50 176t-133 102.5t-179 32.5q-82 0 -164 -22zM283 328q-81 0 -127 -52t-46 -124
q0 -71 47 -123q47 -54 130 -54q80 0 124 52q44 50 44 121q0 73 -46 126q-46 54 -126 54z" />
    <glyph glyph-name="at" unicode="@" horiz-adv-x="746" 
d="M369 735q-75 0 -146 -26.5t-116 -73.5q-49 -50 -74 -121.5t-25 -148.5q0 -89 33.5 -169.5t95.5 -127.5q88 -76 226 -76q166 0 266 100q106 107 106 258q0 99 -46.5 188t-130.5 143t-189 54zM369 582q74 0 115 -65t41 -154q0 -90 -40 -155.5t-112 -65.5q-76 0 -119 67
t-43 156t41 153t117 64z" />
    <glyph glyph-name="A" unicode="A" horiz-adv-x="1493" 
d="M-12 0l575 1422h367l576 -1422h-360l-118 291h-573l-121 -291h-346zM554 543h372l-188 491z" />
    <glyph glyph-name="B" unicode="B" horiz-adv-x="1141" 
d="M37 0v1421h576q227 0 329 -102q43 -49 65.5 -115.5t22.5 -134.5q0 -92 -38.5 -171t-110.5 -126q126 -49 190 -137q66 -90 66 -219q0 -127 -58 -222q-58 -94 -166.5 -144t-254.5 -50h-621zM369 250h199q113 0 174 38q73 45 73 144q0 101 -72 144t-180 43h-194v-369z
M369 860h138q110 0 161 46q44 41 44 116q0 87 -59 127q-61 39 -155 39h-129v-328z" />
    <glyph glyph-name="C" unicode="C" horiz-adv-x="1278" 
d="M1266 80v303q-92 -58 -202 -91.5t-214 -33.5q-211 0 -360 138q-57 62 -87 146q-32 85 -32 173q0 189 119 311q133 140 338 140q198 0 438 -127v299q-105 56 -223 85t-240 29q-354 0 -588 -227q-65 -63 -110 -147q-45 -83 -67.5 -176t-22.5 -191q0 -149 53 -285
q51 -136 151 -231q228 -222 566 -222q238 0 481 107z" />
    <glyph glyph-name="D" unicode="D" horiz-adv-x="1364" 
d="M43 0v1422h566q162 0 298 -50t233 -144q98 -94 150 -225.5t52 -289.5q0 -106 -23.5 -203.5t-70.5 -179.5q-46 -82 -115 -147q-192 -183 -524 -183h-566zM377 246h133q138 0 251.5 56.5t180 162.5t66.5 248q0 208 -133 338q-64 68 -147.5 96.5t-217.5 28.5h-133v-930z" />
    <glyph glyph-name="E" unicode="E" horiz-adv-x="963" 
d="M33 0v1422h922v-250h-590v-307h565v-246h-565v-369h592v-250h-924z" />
    <glyph glyph-name="F" unicode="F" horiz-adv-x="875" 
d="M41 0v1421h830v-233h-498v-336h498v-246h-502v-606h-328z" />
    <glyph glyph-name="G" unicode="G" horiz-adv-x="1317" 
d="M1282 25v702h-487v-248h156v-229q-49 -8 -111 -8q-223 0 -354 131q-44 45 -73 100t-44.5 117t-15.5 127q0 205 133 326q131 137 366 137q110 0 223 -31.5t207 -82.5v293q-266 93 -489 93q-348 0 -574 -217q-101 -98 -155 -238q-54 -139 -54 -290q0 -124 36 -241
q36 -116 107 -212t173 -157q195 -126 500 -126q189 0 456 54z" />
    <glyph glyph-name="H" unicode="H" horiz-adv-x="1403" 
d="M37 0v1422h328v-582h675v582h328v-1422h-328v582h-675v-582h-328z" />
    <glyph glyph-name="I" unicode="I" horiz-adv-x="391" 
d="M33 0v1422h328v-1422h-328z" />
    <glyph glyph-name="J" unicode="J" horiz-adv-x="391" 
d="M-209 -207h53q104 0 144 52q41 51 41 184v1388h328v-1400q0 -155 -48 -266t-139 -169q-92 -57 -223 -57q-34 0 -140 10z" />
    <glyph glyph-name="K" unicode="K" horiz-adv-x="1317" 
d="M37 0v1422h328v-637l532 637h398l-584 -687l614 -735h-420l-540 678v-678h-328z" />
    <glyph glyph-name="L" unicode="L" horiz-adv-x="1012" 
d="M37 0v1422h328v-1181h647v-241h-975z" />
    <glyph glyph-name="M" unicode="M" horiz-adv-x="1493" 
d="M43 0v1422h310l403 -527l385 527h311v-1422h-320v918l-347 -477h-60l-364 477v-918h-318z" />
    <glyph glyph-name="N" unicode="N" horiz-adv-x="1403" 
d="M43 0v1422h310l691 -918v918h316v-1422h-319l-680 908v-908h-318z" />
    <glyph glyph-name="O" unicode="O" horiz-adv-x="1534" 
d="M764 1458q-104 0 -206 -25.5t-190.5 -76.5t-156.5 -121q-66 -67 -109 -151q-44 -83 -66 -177q-23 -93 -23 -192q0 -137 43.5 -265t128.5 -224q106 -121 263 -185q156 -66 324 -66q155 0 297.5 56t247.5 164q64 63 109 146q46 84 69 180t23 198q0 207 -102 377t-275 266
t-377 96zM772 1180q94 0 170.5 -39t129.5 -108q52 -68 80 -152q26 -84 26 -174q0 -212 -131 -346q-109 -113 -281 -113q-86 0 -164.5 33t-132.5 96q-118 128 -118 322q0 121 51 232t148 180t222 69z" />
    <glyph glyph-name="P" unicode="P" horiz-adv-x="1051" 
d="M33 0v1421h598q117 0 215 -49.5t154.5 -141.5t56.5 -212q0 -135 -60.5 -233t-167 -148.5t-237.5 -50.5h-231v-586h-328zM365 836h117q100 0 163 43q61 42 61 139q0 89 -50.5 129.5t-161.5 40.5h-129v-352z" />
    <glyph glyph-name="Q" unicode="Q" horiz-adv-x="1534" 
d="M1282 -283l310 275l-13 8q-78 -10 -143 -10q-164 0 -325 57q94 50 149.5 92.5t100.5 102.5q76 90 116.5 213t40.5 256q0 101 -22.5 196t-68.5 178t-114 146q-104 108 -249.5 165.5t-301.5 57.5t-302 -57q-145 -58 -249 -166q-96 -98 -145 -236q-51 -138 -51 -286
q0 -123 34.5 -237t103.5 -210q68 -95 169 -159q344 -217 960 -386zM768 1176q129 0 220 -66t136.5 -172.5t45.5 -226.5t-45.5 -227t-136.5 -172.5t-220 -65.5q-123 0 -216.5 58.5t-144 165t-50.5 241.5q0 137 50 243q51 106 144 164q94 58 217 58z" />
    <glyph glyph-name="R" unicode="R" horiz-adv-x="1188" 
d="M29 0v1421h543q124 0 229.5 -47t168 -139.5t62.5 -220.5q0 -117 -60.5 -208.5t-168.5 -127.5q95 -71 143.5 -160t123.5 -264t134 -254h-376l-232 465q-66 129 -239 129v-594h-328zM361 839h129q91 0 145.5 43t54.5 132q0 90 -49.5 132t-158.5 42h-121v-349z" />
    <glyph glyph-name="S" unicode="S" horiz-adv-x="875" 
d="M33 340q194 -90 315 -90q95 0 158 55q42 33 42 72q0 51 -53.5 98.5t-110.5 71.5q-192 88 -265 156q-123 107 -123 293q0 192 127 319q72 72 169 107.5t204 35.5q131 0 238 -45l78 -26l-1 -301q-83 46 -145 63.5t-139 17.5q-79 0 -134 -41.5t-55 -101.5q0 -51 39 -98
q46 -47 118 -79.5t155 -69.5q83 -36 131 -78q98 -102 98 -267q0 -91 -30 -173q-32 -83 -89 -140q-143 -144 -401 -144q-62 0 -116 7t-100 19q-31 7 -110 32v307z" />
    <glyph glyph-name="T" unicode="T" horiz-adv-x="1278" 
d="M0 1164v258h1278v-258h-471v-1164h-330v1164h-477z" />
    <glyph glyph-name="U" unicode="U" horiz-adv-x="1403" 
d="M1372 1422h-327v-824q0 -157 -94 -254.5t-248 -97.5q-104 0 -181.5 43t-119 123t-41.5 186v824h-328v-875q0 -118 37.5 -220.5t105.5 -172.5q56 -55 140 -97q83 -41 182 -64q98 -22 201 -22q156 0 302 50t230 133q67 62 104 166.5t37 226.5v875z" />
    <glyph glyph-name="V" unicode="V" horiz-adv-x="1364" 
d="M-8 1422h377l317 -807l310 807h376l-600 -1422h-176z" />
    <glyph glyph-name="W" unicode="W" horiz-adv-x="2114" 
d="M-4 1422h373l278 -816l295 816h230l286 -816l301 816h359l-580 -1422h-205l-286 877l-301 -877h-207z" />
    <glyph glyph-name="X" unicode="X" horiz-adv-x="1534" 
d="M-13 0h424l357 492l365 -492h413l-575 752l535 670h-388l-342 -437l-323 437h-412l530 -674z" />
    <glyph glyph-name="Y" unicode="Y" horiz-adv-x="1364" 
d="M-4 1422l522 -744v-678h326v678l528 744h-372l-314 -449l-309 449h-381z" />
    <glyph glyph-name="Z" unicode="Z" horiz-adv-x="1278" 
d="M-12 0l750 1164h-684l-1 258h1244l-762 -1160h748l-1 -262h-1294z" />
    <glyph glyph-name="bracketleft" unicode="[" horiz-adv-x="568" 
d="M29 0h543v221h-258v979h258v222h-543v-388v-1034z" />
    <glyph glyph-name="bracketright" unicode="]" horiz-adv-x="568" 
d="M-8 1200h266v-979h-266v-221h551v387v1035h-551v-222z" />
    <glyph glyph-name="underscore" unicode="_" horiz-adv-x="836" 
d="M-8 -258v-47h856v47h-856z" />
    <glyph glyph-name="grave" unicode="`" horiz-adv-x="258" 
d="M-357 1374l287 -297h199l-166 297h-320z" />
    <glyph glyph-name="a" unicode="a" 
d="M506 68q-96 -90 -246 -90q-68 0 -127 26q-58 25 -93.5 77.5t-35.5 129.5q0 108 72 179q73 71 169 108q71 27 155 51t98 29q0 139 -158 139q-91 0 -176 -39q-9 -4 -106 -63v241q199 88 376 88q174 0 283 -100q82 -71 82 -213v-369q0 -61 41 -61q20 0 94 37v-170
q-153 -97 -262 -97q-105 0 -166 97zM498 226v194q-106 -22 -153.5 -57.5t-47.5 -96.5q0 -90 82 -90q67 0 119 50z" />
    <glyph glyph-name="b" unicode="b" horiz-adv-x="1012" 
d="M33 0v1422h293v-537q79 37 124 49t103 12q132 0 235 -62t159.5 -171.5t56.5 -247.5t-53 -248.5t-154.5 -173.5t-237.5 -63q-46 0 -79 6q-60 10 -150 66v-51zM330 230q88 -62 174 -62q75 0 127 58q66 89 66 235q0 74 -21 137q-23 63 -70 102.5t-116 39.5q-68 0 -160 -50
v-460z" />
    <glyph glyph-name="c" unicode="c" horiz-adv-x="789" 
d="M785 21v213q-123 -56 -209 -56q-123 0 -195 76t-72 207t79 197.5t196 66.5q106 0 201 -47v217q-140 51 -254 51q-143 0 -263 -61t-190 -173t-70 -255q0 -141 65.5 -252t184 -172.5t269.5 -61.5q111 0 258 50z" />
    <glyph glyph-name="d" unicode="d" horiz-adv-x="1012" 
d="M682 52q-115 -68 -250 -68q-183 0 -295 123q-133 127 -133 329q0 95 31.5 185t92.5 163q60 74 143.5 116t183.5 42q91 0 231 -53v533h293v-1421h-297v51zM682 230v465q-47 27 -77 36q-29 9 -70 9q-73 0 -124 -39t-76.5 -102.5t-25.5 -135.5q0 -75 26.5 -141t79 -107
t124.5 -41q82 0 143 56z" />
    <glyph glyph-name="e" unicode="e" horiz-adv-x="963" 
d="M935 103q-207 -131 -433 -131q-230 0 -373 151q-125 128 -125 328q0 96 35 190t98 160q45 45 103 78q59 32 123 47.5t133 15.5q122 0 226.5 -53t162.5 -157q72 -118 72 -328h-635q9 -105 87 -155t191 -50q138 0 253 59q48 30 82 47v-202zM318 561h373q-25 94 -70 136
q-46 43 -123 43q-80 0 -127 -46t-53 -133z" />
    <glyph glyph-name="f" unicode="f" horiz-adv-x="568" 
d="M4 723v190h107v121q0 142 18 207q16 65 68 117q89 92 239 92q36 0 75 -5.5t71 -13t47 -9.5v-218q-56 21 -102 21q-61 0 -86 -29q-22 -20 -29 -52q-8 -31 -8 -101v-130h164v-190h-168v-723h-289v723h-107z" />
    <glyph glyph-name="g" unicode="g" 
d="M815 717h115v197h-498q-113 0 -209 -41.5t-153 -124t-57 -199.5q0 -106 51 -174.5t164 -112.5q-56 -15 -82 -32q-54 -33 -54 -90q0 -37 22.5 -76t53.5 -64q-189 -42 -189 -207q0 -161 130 -227q128 -66 303 -66q148 0 258 37t168.5 106.5t58.5 161.5q0 119 -76 180
q-77 62 -200 79q-122 23 -165.5 40t-43.5 46q0 49 103 71l74 17q133 31 200 82q44 41 69 102t25 125q0 108 -68 170zM408 -111h45q178 0 178 -96q0 -65 -63 -83q-63 -17 -152 -17q-66 0 -119 22.5t-53 81.5q0 49 38.5 70.5t125.5 21.5zM459 719q67 0 104 -45t37 -109
q0 -62 -37 -107q-37 -47 -104 -47q-66 0 -103 47q-36 46 -36 107q0 63 36 109q37 45 103 45z" />
    <glyph glyph-name="h" unicode="h" 
d="M29 0v1422h293v-594q140 84 274 84q130 0 215 -88q86 -80 86 -259v-565h-288v514q0 77 -39 114q-38 38 -101 38q-85 0 -151 -60v-606h-289z" />
    <glyph glyph-name="i" unicode="i" horiz-adv-x="346" 
d="M168 1409q-70 0 -115 -45.5t-45 -116.5q0 -69 46.5 -113t121.5 -44q70 0 109 45t39 108q0 67 -42 117q-41 49 -114 49zM29 0h293v914h-293v-914z" />
    <glyph glyph-name="j" unicode="j" horiz-adv-x="346" 
d="M-119 -246l94 -272q101 31 180 96t123 156t44 198v982h-293v-947q0 -88 -35 -137q-34 -50 -113 -76zM168 1409q-74 0 -116 -47t-42 -110q0 -67 42.5 -114.5t119.5 -47.5q73 0 113 46q41 46 41 111q0 42 -18 79q-20 37 -55.5 60t-84.5 23z" />
    <glyph glyph-name="k" unicode="k" horiz-adv-x="1051" 
d="M29 0v1422h293v-908l336 400h362l-368 -422l409 -492h-383l-356 479v-479h-293z" />
    <glyph glyph-name="l" unicode="l" horiz-adv-x="346" 
d="M29 0v1422h293v-1422h-293z" />
    <glyph glyph-name="m" unicode="m" horiz-adv-x="1534" 
d="M41 0h293v611q90 59 148 59q59 0 100.5 -44t41.5 -112v-514h290v611q91 63 155 63q60 0 97.5 -45t37.5 -115v-514h297v565q0 165 -86.5 257t-238.5 92q-84 0 -157 -27q-74 -26 -171 -90q-108 117 -258 117q-131 0 -252 -86v86h-297v-914z" />
    <glyph glyph-name="n" unicode="n" 
d="M29 0h293v611q100 63 147 63q61 0 102.5 -45.5t41.5 -114.5v-514h288v565q0 168 -86.5 258.5t-246.5 90.5q-65 0 -113 -18q-49 -17 -129 -68v86h-297v-914z" />
    <glyph glyph-name="o" unicode="o" horiz-adv-x="1051" 
d="M527 942q-140 0 -257 -63.5t-185 -176.5t-68 -253q0 -142 65 -249q66 -107 179 -163q113 -58 253 -58q127 0 226.5 34t160.5 98q65 60 100 150q36 90 36 192q0 106 -37 196.5t-105 156t-162 101t-206 35.5zM527 740q65 0 112.5 -41.5t71.5 -108t24 -139.5
q0 -114 -54.5 -197.5t-149.5 -83.5q-103 0 -160.5 85.5t-57.5 201.5q0 72 24.5 137t73.5 105.5t116 40.5z" />
    <glyph glyph-name="p" unicode="p" horiz-adv-x="1012" 
d="M33 -461v1375h293v-54q108 78 246 78q173 0 299 -123q135 -138 135 -340q0 -129 -55 -244.5t-157 -187t-235 -71.5q-88 0 -233 70v-503h-293zM330 221q92 -53 166 -53q75 0 125 58q76 88 76 227q0 73 -25 138t-76 105q-50 39 -123 39q-66 0 -143 -53v-461z" />
    <glyph glyph-name="q" unicode="q" horiz-adv-x="1012" 
d="M686 34q-79 -35 -127 -46q-47 -12 -104 -12q-127 0 -229.5 60t-160 169.5t-57.5 247.5q0 139 57 251t159 175q103 63 231 63q51 0 89 -13q68 -23 142 -69v54h293v-1375h-293v495zM682 221v461q-110 58 -164 58q-99 0 -156 -84.5t-57 -198.5q0 -116 57.5 -199.5
t159.5 -83.5q65 0 160 47z" />
    <glyph glyph-name="r" unicode="r" horiz-adv-x="746" 
d="M41 0h293v357q0 157 66 229q51 51 122 51q69 0 136 -43l98 262q-73 35 -107.5 46.5t-72.5 11.5q-123 0 -242 -179v179h-293v-914z" />
    <glyph glyph-name="s" unicode="s" horiz-adv-x="699" 
d="M33 271q137 -97 258 -97q44 0 66 19t22 47q0 27 -18 52q-19 26 -52 40q-93 44 -152 82t-98 98.5t-39 145.5q0 143 97.5 210.5t241.5 67.5q107 0 168 -19.5t102 -39.5v-219q-138 90 -242 90q-34 0 -56 -19t-22 -47q0 -27 24 -46.5t95 -53.5q98 -41 154 -81q57 -40 81 -90
q23 -49 23 -120q0 -106 -49.5 -175t-132 -99.5t-180.5 -30.5q-74 0 -135.5 12t-155.5 49v224z" />
    <glyph glyph-name="t" unicode="t" horiz-adv-x="658" 
d="M-12 723h111v-432q0 -150 65 -219q96 -97 264 -97q120 0 242 46v205q-83 -48 -148 -48q-77 0 -104 57q-26 57 -26 146v342h262v191h-263v290h-45l-358 -348v-133z" />
    <glyph glyph-name="u" unicode="u" 
d="M604 80q-128 -80 -262 -80q-138 0 -227 92q-51 50 -70.5 105t-19.5 147v570h293v-514q0 -71 42 -117.5t103 -46.5q49 0 92 30l54 39v609h288v-914h-293v80z" />
    <glyph glyph-name="v" unicode="v" horiz-adv-x="963" 
d="M-13 914l390 -914h215l379 914h-313l-172 -502l-185 502h-314z" />
    <glyph glyph-name="w" unicode="w" horiz-adv-x="1403" 
d="M-16 914l385 -914h162l172 500l168 -500h176l381 914h-291l-170 -430l-164 430h-194l-156 -430l-170 430h-299z" />
    <glyph glyph-name="x" unicode="x" horiz-adv-x="1051" 
d="M-21 0h350l185 258l197 -258h358l-383 496l314 416l-346 2l-140 -201l-149 201l-357 -2l334 -428z" />
    <glyph glyph-name="y" unicode="y" horiz-adv-x="1012" 
d="M0 914h334l184 -469l172 469h318l-576 -1389h-317l250 604z" />
    <glyph glyph-name="z" unicode="z" horiz-adv-x="875" 
d="M-17 0h888v203h-426l448 711h-836v-197h375z" />
    <glyph glyph-name="nonbreakingspace" unicode="&#xa0;" horiz-adv-x="258" 
 />
    <glyph glyph-name="exclamdown" unicode="&#xa1;" horiz-adv-x="391" 
d="M185 1442q-82 0 -127 -54.5t-45 -127.5t45 -125q45 -54 127 -54t127 54q45 52 45 125t-45.5 127.5t-126.5 54.5zM240 973h-90q-38 -142 -66 -272.5t-45.5 -263.5t-17.5 -259q0 -93 45 -148t119 -55q77 0 121 64q45 62 45 172q0 81 -9 165t-24 176t-31 196l-21 100z" />
    <glyph glyph-name="cent" unicode="&#xa2;" horiz-adv-x="789" 
d="M477 -25v-145h119l1 145q94 6 192 46v213q-123 -56 -217 -56q-77 0 -136 35.5t-90.5 99.5t-31.5 148q0 83 31 145t90.5 93.5t140.5 31.5q96 0 213 -53v217q-149 42 -193 47v144h-119v-144q-132 -15 -238 -77.5t-166 -166.5t-60 -237q0 -132 56.5 -235t157 -166.5
t228.5 -80.5z" />
    <glyph glyph-name="sterling" unicode="&#xa3;" horiz-adv-x="1012" 
d="M0 -33l47 8l105 17q104 12 201 12q95 0 196 -12l72 -13q70 -12 135 -12q80 0 240 25v299q-132 -49 -222 -49q-56 0 -116 20l-66 17q-78 12 -227 12l76 248h254v262h-184q51 177 124 264q74 82 199 82q64 0 162 -26l-95 284q-90 17 -145 17q-120 0 -209.5 -56.5
t-151.5 -147.5t-102 -188t-84 -229h-184v-262h121z" />
    <glyph glyph-name="section" unicode="&#xa7;" horiz-adv-x="1141" 
d="M951 146q186 156 186 342q0 99 -59 179t-136.5 134t-195.5 121q-59 32 -130.5 72.5t-121 91t-49.5 110.5q0 72 44 111q45 39 109 39q63 0 111 -36t55 -101q7 -59 45.5 -90t87.5 -31q63 0 112 41.5t49 109.5q0 125 -132 211q-131 76 -322 76q-198 0 -329 -76
q-76 -48 -121 -127t-45 -164q0 -112 80 -192q-101 -85 -143 -163.5t-42 -172.5q0 -138 119 -254q52 -52 110 -96q58 -43 125 -85q67 -41 131.5 -77t139.5 -78q50 -45 67 -66t17 -63q0 -62 -51 -99q-52 -36 -119 -36q-57 0 -98.5 27t-48.5 77q-10 75 -49.5 122.5t-110.5 47.5
q-61 0 -101.5 -46.5t-40.5 -119.5q0 -104 79.5 -169t190.5 -92.5t212 -27.5q105 0 194 24t153 68.5t98 106.5t34 137q0 132 -104 214zM776 279l-55 33l-207 137q-33 18 -75.5 42t-74.5 50.5t-42 56.5q-23 39 -23 84q0 71 66 150q38 -27 127 -81t145 -91t105 -82
q84 -52 84 -152q0 -79 -50 -147z" />
    <glyph glyph-name="dieresis" unicode="&#xa8;" horiz-adv-x="258" 
d="M-201 1405q-70 0 -110 -47q-39 -48 -39 -111q0 -64 39 -110.5t110 -46.5q72 0 112 46t40 109q0 65 -40 112.5t-112 47.5zM197 1405q-74 0 -115 -47.5t-41 -110.5q0 -64 41 -110.5t115 -46.5q70 0 108.5 46t38.5 111q0 64 -39 111t-108 47z" />
    <glyph glyph-name="guillemotleft" unicode="&#xab;" horiz-adv-x="836" 
d="M-17 445l296 -389h252l-304 389l308 411h-256zM297 445l283 -389h260l-295 389l307 411h-260z" />
    <glyph glyph-name="acute" unicode="&#xb4;" horiz-adv-x="258" 
d="M-197 1077h209l293 297h-326z" />
    <glyph glyph-name="paragraph" unicode="&#xb6;" horiz-adv-x="1102" 
d="M506 -428h47v764v1034h211v-759v-1039h47v764v1034h258v52h-551q-181 0 -314.5 -83.5t-133.5 -256.5q0 -176 127 -259t309 -83v-129v-1039z" />
    <glyph glyph-name="periodcentered" unicode="&#xb7;" horiz-adv-x="436" 
d="M215 891q-80 0 -126 -54.5t-46 -125.5q0 -72 44.5 -124t123.5 -52q82 0 128 54t46 126t-44 124t-126 52z" />
    <glyph glyph-name="cedilla" unicode="&#xb8;" horiz-adv-x="258" 
d="M-248 -353q98 -45 152 -62t113 -17q113 0 181 52.5t68 141.5q0 91 -70.5 116t-178.5 25l73 110h-123l-100 -171l43 -45q22 2 42 5t31 3q34 0 53.5 -20t19.5 -47q0 -58 -64 -58q-89 0 -193 58z" />
    <glyph glyph-name="guillemotright" unicode="&#xbb;" horiz-adv-x="836" 
d="M-8 856l305 -411l-297 -389h262l283 389l-297 411h-256zM309 856l304 -411l-299 -389h249l281 389l-281 411h-254z" />
    <glyph glyph-name="questiondown" unicode="&#xbf;" horiz-adv-x="613" 
d="M592 258q-76 -53 -160 -53q-110 0 -110 115q0 61 35 131.5t69.5 141t34.5 130.5q0 65 -20 115.5t-64 132.5h-99q8 -30 8 -66q0 -73 -33.5 -140t-99.5 -162.5t-99.5 -164t-33.5 -147.5q0 -105 51 -176q49 -71 131.5 -104.5t178.5 -33.5q81 0 164 23zM322 1417
q-55 0 -93.5 -25t-58 -65t-19.5 -86q0 -73 47 -126q45 -54 128 -54q80 0 124 51.5t44 124.5q0 45 -20 87t-58.5 67.5t-93.5 25.5z" />
    <glyph glyph-name="Agrave" unicode="&#xc0;" horiz-adv-x="1493" 
d="M-12 0h347l120 291h573l117 -291h361l-156 387l-420 1035h-367l-159 -387zM554 543l184 491l188 -491h-372zM388 1745l286 -295h201l-168 295h-319z" />
    <glyph glyph-name="Aacute" unicode="&#xc1;" horiz-adv-x="1493" 
d="M-12 0h347l120 291h573l117 -291h361l-156 387l-420 1035h-367l-159 -387zM554 543l184 491l188 -491h-372zM550 1450h211l290 295h-326z" />
    <glyph glyph-name="Acircumflex" unicode="&#xc2;" horiz-adv-x="1493" 
d="M-12 0h347l120 291h573l117 -291h361l-156 387l-420 1035h-367l-159 -387zM554 543l184 491l188 -491h-372zM425 1458h207l114 150l116 -150h204l-191 291h-271z" />
    <glyph glyph-name="Atilde" unicode="&#xc3;" horiz-adv-x="1493" 
d="M-12 0h347l120 291h573l117 -291h361l-156 387l-420 1035h-367l-159 -387zM554 543l184 491l188 -491h-372zM416 1637l119 -144q40 51 96 51q24 0 49 -8.5t61 -23.5q37 -16 66 -24.5t60 -8.5q111 0 203 145l-132 121q-37 -33 -52.5 -43t-37.5 -10q-40 0 -108 35t-109 35
q-61 0 -108 -32q-47 -31 -107 -93z" />
    <glyph glyph-name="Adieresis" unicode="&#xc4;" horiz-adv-x="1493" 
d="M-13 0h347l121 291h573l117 -291h361l-156 387l-420 1035h-367l-159 -387zM553 543l185 491l188 -491h-373zM545 1782q-72 0 -114 -47t-42 -111t42 -110.5t114 -46.5q70 0 108.5 45t38.5 110t-39 112.5t-108 47.5zM946 1782q-74 0 -115 -47q-43 -47 -43 -111t42.5 -110.5
t115.5 -46.5q68 0 106 45.5t38 109.5q0 67 -38 113.5t-106 46.5z" />
    <glyph glyph-name="Aring" unicode="&#xc5;" horiz-adv-x="1493" 
d="M-12 0h347l120 291h573l117 -291h361l-156 387l-420 1035h-367l-159 -388zM554 543l184 491l188 -491h-372zM742 1837q-96 0 -149 -62q-52 -62 -52 -149q0 -88 55 -154q56 -67 154 -67q96 0 150.5 62.5t54.5 148.5q0 88 -57 154.5t-156 66.5zM742 1700q34 0 54 -23
t20 -55q0 -29 -19 -49q-18 -20 -51 -20q-32 0 -50 23q-17 22 -17 52t16 51t47 21z" />
    <glyph glyph-name="AE" unicode="&#xc6;" horiz-adv-x="1798" 
d="M-17 0h373l179 348h391v-348h876v246h-544v356h514v246h-514v328h544v246h-73h-1022l-201 -388zM647 606l271 562v-562h-271z" />
    <glyph glyph-name="Ccedilla" unicode="&#xc7;" horiz-adv-x="1278" 
d="M597 -4l-90 -154l42 -45q74 8 76 8q33 0 52.5 -20t19.5 -47q0 -58 -66 -58q-87 0 -190 58l-53 -91q105 -47 156 -63t114 -16q114 0 181 52.5t67 141.5q0 91 -71 116t-181 25l49 76q52 -8 112 -8q202 0 451 109v303q-92 -58 -202 -91.5t-214 -33.5q-211 0 -360 138
q-57 62 -87 146q-32 85 -32 173q0 189 119 311q133 140 338 140q198 0 438 -127v299q-105 56 -223 85t-240 29q-354 0 -588 -227q-198 -196 -198 -518q0 -179 73.5 -327.5t205.5 -247t301 -136.5z" />
    <glyph glyph-name="Egrave" unicode="&#xc8;" horiz-adv-x="963" 
d="M33 0h924v250h-592v369h566l-1 246h-565v307h590v250h-922v-388v-1034zM123 1745l281 -295h205l-164 295h-322z" />
    <glyph glyph-name="Eacute" unicode="&#xc9;" horiz-adv-x="963" 
d="M33 0h924v250h-592v369h566l-1 246h-565v307h590v250h-922v-388v-1034zM283 1450h211l295 295h-330z" />
    <glyph glyph-name="Ecircumflex" unicode="&#xca;" horiz-adv-x="963" 
d="M33 0h924v250h-592v369h566l-1 246h-565v307h590v250h-922v-388v-1034zM156 1458h205l116 150l123 -150h204l-195 291h-271z" />
    <glyph glyph-name="Edieresis" unicode="&#xcb;" horiz-adv-x="963" 
d="M33 0h924v250h-592v369h565v246h-565v307h590v250h-922v-388v-1034zM279 1782q-73 0 -112.5 -46.5t-39.5 -111.5q0 -64 40 -111q40 -46 112 -46q71 0 110 45t39 110q0 66 -39.5 113t-109.5 47zM674 1782q-72 0 -112 -46.5t-40 -111.5q0 -64 40 -111q40 -46 112 -46
q71 0 110.5 46t39.5 109q0 66 -40 113t-110 47z" />
    <glyph glyph-name="Igrave" unicode="&#xcc;" horiz-adv-x="391" 
d="M34 0h327v387v1035h-327v-388v-1034zM-159 1745l286 -295h199l-170 295h-315z" />
    <glyph glyph-name="Iacute" unicode="&#xcd;" horiz-adv-x="391" 
d="M33 0h328v387v1035h-328v-388v-1034zM0 1450h209l293 295h-326z" />
    <glyph glyph-name="Icircumflex" unicode="&#xce;" horiz-adv-x="391" 
d="M33 0h328v387v1035h-328v-388v-1034zM-127 1458h205l119 150l117 -150h204l-192 291h-275z" />
    <glyph glyph-name="Idieresis" unicode="&#xcf;" horiz-adv-x="391" 
d="M33 0h328v387v1035h-328v-388v-1034zM-4 1782q-71 0 -110.5 -46.5t-39.5 -111.5q0 -64 40 -111q39 -46 110 -46q70 0 110 45.5t40 109.5t-40.5 112t-109.5 48zM391 1782q-72 0 -113 -46q-40 -47 -40 -112q0 -64 40 -111q41 -46 113 -46q71 0 110 46q40 45 40 109
q0 67 -40 113.5t-110 46.5z" />
    <glyph glyph-name="Ntilde" unicode="&#xd1;" horiz-adv-x="1403" 
d="M43 0v1422h310l691 -918v918h316v-1422h-319l-680 908v-908h-318zM373 1637q99 118 217 118q64 0 135 -39q46 -22 72 -22q41 0 92 51l139 -121q-105 -145 -204 -145q-35 0 -68 11.5t-58 20.5q-81 33 -112 33q-54 0 -96 -51z" />
    <glyph glyph-name="Ograve" unicode="&#xd2;" horiz-adv-x="1534" 
d="M764 1458q104 0 206 -25.5t190 -75.5q88 -49 153 -118q100 -97 152.5 -235t52.5 -289q0 -148 -51 -285q-53 -138 -150 -235q-105 -108 -247.5 -164t-297.5 -56q-168 0 -324 66q-157 64 -263 185q-85 96 -128.5 224t-43.5 265q0 99 23 192q22 94 66 177q43 84 109 151
q68 70 156.5 121t190.5 76.5t206 25.5zM772 1180q94 0 170.5 -39t129.5 -108q52 -68 80 -152q26 -84 26 -174q0 -212 -131 -346q-109 -113 -281 -113q-86 0 -164.5 33t-132.5 96q-118 128 -118 322q0 121 51 232t148 180t222 69zM408 1745l287 -295h199l-169 295h-317z" />
    <glyph glyph-name="Oacute" unicode="&#xd3;" horiz-adv-x="1534" 
d="M764 1458q104 0 206 -25.5t190 -75.5q88 -49 153 -118q100 -97 152.5 -235t52.5 -289q0 -148 -51 -285q-53 -138 -150 -235q-105 -108 -247.5 -164t-297.5 -56q-168 0 -324 66q-157 64 -263 185q-85 96 -128.5 224t-43.5 265q0 99 23 192q22 94 66 177q43 84 109 151
q68 70 156.5 121t190.5 76.5t206 25.5zM772 1180q94 0 170.5 -39t129.5 -108q52 -68 80 -152q26 -84 26 -174q0 -212 -131 -346q-109 -113 -281 -113q-86 0 -164.5 33t-132.5 96q-118 128 -118 322q0 121 51 232t148 180t222 69zM568 1450h213l289 295h-324z" />
    <glyph glyph-name="Ocircumflex" unicode="&#xd4;" horiz-adv-x="1534" 
d="M764 1458q-104 0 -206 -25.5t-190.5 -76.5t-156.5 -121q-66 -67 -109 -151q-44 -83 -66 -177q-23 -93 -23 -192q0 -137 43.5 -265t128.5 -224q106 -121 263 -185q156 -66 324 -66q155 0 297.5 56t247.5 164q64 63 109 146q46 84 69 180t23 198q0 207 -102 377t-275 266
t-377 96zM772 1180q94 0 170.5 -39t129.5 -108q52 -68 80 -152q26 -84 26 -174q0 -212 -131 -346q-109 -113 -281 -113q-86 0 -164.5 33t-132.5 96q-118 128 -118 322q0 121 51 232t148 180t222 69zM445 1458h207l116 150l113 -150h209l-197 291h-268z" />
    <glyph glyph-name="Otilde" unicode="&#xd5;" horiz-adv-x="1534" 
d="M764 1458q-104 0 -206 -25.5t-190.5 -76.5t-156.5 -121q-66 -67 -109 -151q-44 -83 -66 -177q-23 -93 -23 -192q0 -137 43.5 -265t128.5 -224q106 -121 263 -185q156 -66 324 -66q155 0 297.5 56t247.5 164q64 63 109 146q46 84 69 180t23 198q0 207 -102 377t-275 266
t-377 96zM772 1180q94 0 170.5 -39t129.5 -108q52 -68 80 -152q26 -84 26 -174q0 -212 -131 -346q-109 -113 -281 -113q-86 0 -164.5 33t-132.5 96q-118 128 -118 322q0 121 51 232t148 180t222 69zM441 1637l112 -144q47 49 101 49q31 0 106 -31q75 -33 125 -33
q109 0 209 146l-137 121q-52 -51 -97 -51q-30 0 -67 22q-73 37 -137 37q-114 0 -215 -116z" />
    <glyph glyph-name="Odieresis" unicode="&#xd6;" horiz-adv-x="1534" 
d="M764 1458q-104 0 -206 -25.5t-190.5 -76.5t-156.5 -121q-66 -67 -110 -151q-44 -83 -66 -177q-22 -93 -22 -192q0 -137 43.5 -265t128.5 -224q106 -121 263 -185q156 -66 324 -66q155 0 297.5 56t247.5 164q64 63 109 146q45 84 68.5 180t23.5 198q0 207 -102 377
t-275 266t-377 96zM772 1180q94 0 170.5 -39t129.5 -108q52 -68 79 -152t27 -174q0 -212 -131 -346q-109 -113 -281 -113q-86 0 -164.5 33t-132.5 96q-119 128 -119 322q0 121 51.5 232t148.5 180t222 69zM563 1782q-72 0 -113 -46q-40 -47 -40 -112q0 -64 40 -111
q41 -46 113 -46q70 0 110 45t40 110t-41 113q-40 47 -109 47zM963 1782q-73 0 -113.5 -46.5t-40.5 -111.5q0 -64 41 -111q40 -46 113 -46q69 0 108 45.5t39 109.5q0 66 -39.5 113t-107.5 47z" />
    <glyph glyph-name="Oslash" unicode="&#xd8;" horiz-adv-x="1534" 
d="M189 221l-151 -145l89 -93l156 150q118 -74 251 -114q133 -42 263 -42q299 0 504 206q107 100 161 234.5t54 283.5q0 129 -41.5 255t-120.5 232l156 150l-82 84l-158 -150q-74 58 -160 98.5t-177.5 61t-182.5 20.5q-96 0 -190 -23t-178.5 -71t-153.5 -119
q-104 -102 -157.5 -240.5t-53.5 -287.5q0 -138 43 -264.5t129 -225.5zM416 449q-65 85 -65 246q0 106 33 206t93 160q111 113 283 113q84 0 161 -29.5t130 -83.5zM498 344l629 619q47 -132 47 -264q0 -211 -119 -338q-112 -113 -287 -113q-158 0 -270 96z" />
    <glyph glyph-name="Ugrave" unicode="&#xd9;" horiz-adv-x="1403" 
d="M1372 1422h-327v-824q0 -157 -94 -254.5t-248 -97.5q-104 0 -181.5 43t-119 123t-41.5 186v824h-328v-875q0 -118 37.5 -220.5t105.5 -172.5q56 -55 140 -97q83 -41 182 -64q98 -22 201 -22q156 0 302 50t230 133q67 62 104 166.5t37 226.5v875zM346 1745l285 -295h201
l-166 295h-320z" />
    <glyph glyph-name="Uacute" unicode="&#xda;" horiz-adv-x="1403" 
d="M1372 1422h-327v-824q0 -157 -94 -254.5t-248 -97.5q-104 0 -181.5 43t-119 123t-41.5 186v824h-328v-875q0 -118 37.5 -220.5t105.5 -172.5q56 -55 140 -97q83 -41 182 -64q98 -22 201 -22q156 0 302 50t230 133q67 62 104 166.5t37 226.5v875zM506 1450h211l295 295
h-330z" />
    <glyph glyph-name="Ucircumflex" unicode="&#xdb;" horiz-adv-x="1403" 
d="M1372 1422h-327v-824q0 -157 -94 -254.5t-248 -97.5q-104 0 -181.5 43t-119 123t-41.5 186v824h-328v-875q0 -118 37.5 -220.5t105.5 -172.5q56 -55 140 -97q83 -41 182 -64q98 -22 201 -22q156 0 302 50t230 133q67 62 104 166.5t37 226.5v875zM379 1458h209l115 150
l121 -150h204l-196 291h-273z" />
    <glyph glyph-name="Udieresis" unicode="&#xdc;" horiz-adv-x="1403" 
d="M1372 1422h-327v-824q0 -157 -94 -254.5t-248 -97.5q-104 0 -181.5 43t-119 123t-41.5 186v824h-328v-875q0 -118 37.5 -220.5t105.5 -172.5q56 -55 140 -97q83 -41 182 -64q98 -22 201 -22q156 0 302 50t230 133q67 62 104 166.5t37 226.5v875zM502 1782
q-72 0 -112 -46.5t-40 -111.5q0 -64 40 -111q40 -46 112 -46t112 45.5t40 109.5t-41 112t-111 48zM897 1782q-71 0 -111 -47t-40 -111t40 -110.5t111 -46.5t110 46q40 45 40 109q0 67 -40 113.5t-110 46.5z" />
    <glyph glyph-name="Yacute" unicode="&#xdd;" horiz-adv-x="1364" 
d="M-4 1422l522 -744v-678h326v678l528 744h-372l-314 -449l-309 449h-381zM486 1450h213l292 295h-329z" />
    <glyph glyph-name="germandbls" unicode="&#xdf;" horiz-adv-x="1051" 
d="M41 0h293v985q0 246 164 246q69 0 110 -51t41 -119q0 -64 -36 -108q-36 -46 -103 -46h-49v-188h53q102 0 156.5 -75.5t54.5 -182.5q0 -131 -71 -215q-43 -45 -127 -45q-43 0 -87 10v-215l41 -4q85 -13 154 -13q119 0 211 69.5t143 178.5q50 110 50 226q0 127 -62 225.5
t-182 136.5q147 94 147 258q0 120 -61 206t-160.5 129.5t-214.5 43.5q-98 0 -188 -33.5t-158 -99.5q-63 -64 -91 -153t-28 -220v-946z" />
    <glyph glyph-name="agrave" unicode="&#xe0;" 
d="M506 68q61 -97 166 -97q109 0 262 97v170q-74 -37 -94 -37q-41 0 -41 61v369q0 142 -82 213q-109 100 -283 100q-177 0 -376 -88v-241q36 21 64 38q27 18 42 25q85 39 176 39q157 0 157 -139l-32 -13q-124 -30 -221 -67q-96 -37 -168 -108t-72 -179q0 -77 35.5 -129.5
t93.5 -78.5q59 -26 127 -26q150 0 246 91zM497 226q-51 -50 -118 -50q-82 0 -82 90q0 61 47 96.5t153 57.5v-194zM107 1374l280 -297h205l-164 297h-321z" />
    <glyph glyph-name="aacute" unicode="&#xe1;" 
d="M506 68q61 -97 166 -97q109 0 262 97v170q-74 -37 -94 -37q-41 0 -41 61v369q0 142 -82 213q-109 100 -283 100q-177 0 -376 -88v-241q36 21 64 38q27 18 42 25q85 39 176 39q157 0 157 -139l-32 -13q-124 -30 -221 -67q-96 -37 -168 -108t-72 -179q0 -77 35.5 -129.5
t93.5 -78.5q59 -26 127 -26q150 0 246 91zM497 226q-51 -50 -118 -50q-82 0 -82 90q0 61 47 96.5t153 57.5v-194zM266 1077h211l295 297h-327z" />
    <glyph glyph-name="acircumflex" unicode="&#xe2;" 
d="M506 68q61 -97 166 -97q109 0 262 97v170q-74 -37 -94 -37q-41 0 -41 61v369q0 142 -82 213q-109 100 -283 100q-177 0 -376 -88v-241q36 21 64 38q27 18 42 25q85 39 176 39q157 0 157 -139l-32 -13q-124 -30 -221 -67q-96 -37 -168 -108t-72 -179q0 -77 35.5 -129.5
t93.5 -78.5q59 -26 127 -26q150 0 246 91zM497 226q-51 -50 -118 -50q-82 0 -82 90q0 61 47 96.5t153 57.5v-194zM142 1085h204l115 150l119 -150h209l-197 294h-270z" />
    <glyph glyph-name="atilde" unicode="&#xe3;" 
d="M506 68q61 -97 166 -97q109 0 262 97v170q-74 -37 -94 -37q-41 0 -41 61v369q0 142 -82 213q-109 100 -283 100q-177 0 -376 -88v-241q36 21 64 38q27 18 42 25q85 39 176 39q157 0 157 -139l-32 -13q-124 -30 -221 -67q-96 -37 -168 -108t-72 -179q0 -77 35.5 -129.5
t93.5 -78.5q59 -26 127 -26q150 0 246 91zM497 226q-51 -50 -118 -50q-82 0 -82 90q0 61 47 96.5t153 57.5v-194zM133 1260l121 -135q43 51 94 51q23 0 49 -10q26 -9 61 -25.5t63 -25.5t59 -9q62 0 109 37.5t104 108.5l-139 122q-48 -53 -93 -53q-24 0 -75 25
q-73 35 -136 35q-121 0 -217 -121z" />
    <glyph glyph-name="adieresis" unicode="&#xe4;" 
d="M506 68q61 -97 166 -97q109 0 262 97v170q-74 -37 -94 -37q-41 0 -41 61v369q0 142 -82 213q-109 100 -283 100q-177 0 -376 -88v-241q36 21 64 38q27 18 42 25q85 39 176 39q158 0 158 -139l-33 -13q-124 -30 -220.5 -67t-168.5 -108t-72 -179q0 -77 35.5 -129.5
t93.5 -78.5q59 -26 127 -26q150 0 246 91zM498 226q-52 -50 -119 -50q-82 0 -82 90q0 61 47 96.5t154 57.5v-194zM262 1405q-72 0 -111.5 -47t-39.5 -111t39 -110q40 -47 112 -47q70 0 110 46q40 47 40 111t-40 111t-110 47zM658 1405q-71 0 -111.5 -47.5t-40.5 -110.5
t40.5 -110t111.5 -47t111 46q40 47 40 111t-40.5 111t-110.5 47z" />
    <glyph glyph-name="aring" unicode="&#xe5;" 
d="M506 68q61 -97 166 -97q109 0 262 97v170q-74 -37 -94 -37q-41 0 -41 61v369q0 142 -82 213q-109 100 -283 100q-177 0 -376 -88v-241q36 21 64 38q27 18 42 25q85 39 176 39q157 0 157 -139l-32 -13q-124 -30 -221 -67q-96 -37 -168 -108t-72 -179q0 -77 35.5 -129.5
t93.5 -78.5q59 -26 127 -26q150 0 246 91zM497 226q-51 -50 -118 -50q-82 0 -82 90q0 61 47 96.5t153 57.5v-194zM461 1471q-95 0 -147 -62.5t-52 -148.5q0 -89 55.5 -155.5t151.5 -66.5q95 0 147 62q52 60 52 145q0 57 -24.5 109t-71 84.5t-111.5 32.5zM461 1325
q33 0 51 -22q19 -22 19 -51q0 -30 -18.5 -51t-51.5 -21q-31 0 -49.5 21.5t-18.5 52.5q0 29 18 50t50 21z" />
    <glyph glyph-name="ae" unicode="&#xe6;" horiz-adv-x="1364" 
d="M600 80q130 -107 324 -107q108 0 218 38q111 37 196 100v195q-150 -107 -318 -107q-71 0 -135.5 22t-106.5 68q-43 47 -49 115h635q0 279 -129 416q-118 120 -289 120q-124 0 -256 -67q-156 61 -303 61q-169 0 -340 -78v-241q56 39 141.5 71.5t155.5 32.5q146 0 146 -154
q-188 -15 -343 -102t-155 -256q0 -103 71 -167.5t181 -64.5q80 0 173 28q94 26 183 77zM490 226q-54 -48 -123 -48q-80 0 -80 84q0 59 53.5 96t149.5 46v-178zM729 561q7 82 57 127t119 45q67 0 120.5 -45t64.5 -127h-361z" />
    <glyph glyph-name="ccedilla" unicode="&#xe7;" horiz-adv-x="789" 
d="M350 0l-88 -158l43 -45q53 10 78 10q72 0 72 -65q0 -62 -76 -62q-75 0 -190 58l-47 -91q106 -47 157 -63t109 -16q114 0 182 52.5t68 141.5q0 91 -69 116t-181 25l47 72q36 -6 72 -6q107 0 258 52v213q-123 -56 -209 -56q-123 0 -195 76t-72 207t79 197.5t196 66.5
q106 0 201 -47v217q-140 51 -254 51q-143 0 -263 -61t-190 -173t-70 -255q0 -169 89.5 -289t252.5 -168z" />
    <glyph glyph-name="egrave" unicode="&#xe8;" horiz-adv-x="963" 
d="M935 103l-1 203q-25 -13 -45 -25q-19 -12 -37 -22q-114 -60 -252 -60q-113 0 -191 50t-87 155h635q0 210 -72 328q-58 104 -162.5 157t-226.5 53q-69 0 -133 -15.5t-123 -47.5q-58 -33 -103 -78q-63 -66 -98 -160t-35 -190q0 -200 125 -328q143 -152 373 -152
q226 0 433 132zM318 561q6 87 53 132.5t127 45.5q77 0 122.5 -42t70.5 -136h-373zM127 1374l281 -297h205l-168 297h-318z" />
    <glyph glyph-name="eacute" unicode="&#xe9;" horiz-adv-x="963" 
d="M935 103l-1 203q-25 -13 -45 -25q-19 -12 -37 -22q-114 -60 -252 -60q-113 0 -191 50t-87 155h635q0 210 -72 328q-58 104 -162.5 157t-226.5 53q-69 0 -133 -15.5t-123 -47.5q-58 -33 -103 -78q-63 -66 -98 -160t-35 -190q0 -200 125 -328q143 -152 373 -152
q226 0 433 132zM318 561q6 87 53 132.5t127 45.5q77 0 122.5 -42t70.5 -136h-373zM287 1077h207l295 297h-328z" />
    <glyph glyph-name="ecircumflex" unicode="&#xea;" horiz-adv-x="963" 
d="M935 103l-1 203q-25 -13 -45 -25q-19 -12 -37 -22q-114 -60 -252 -60q-113 0 -191 50t-87 155h635q0 210 -72 328q-58 104 -162.5 157t-226.5 53q-69 0 -133 -15.5t-123 -47.5q-58 -33 -103 -78q-63 -66 -98 -160t-35 -190q0 -200 125 -328q143 -152 373 -152
q226 0 433 132zM318 561q6 87 53 132.5t127 45.5q77 0 122.5 -42t70.5 -136h-373zM156 1086h209l117 149l118 -149h204l-191 293h-275z" />
    <glyph glyph-name="edieresis" unicode="&#xeb;" horiz-adv-x="963" 
d="M934 103v203q-25 -13 -45 -25q-19 -12 -37 -22q-114 -60 -252 -60q-113 0 -191 50t-87 155h635q0 210 -72 328q-58 104 -162.5 157t-226.5 53q-69 0 -133 -15.5t-123 -47.5q-58 -33 -103 -78q-63 -66 -98 -160t-35 -190q0 -200 125 -328q143 -152 373 -152q226 0 432 132
zM318 561q6 87 53 132.5t127 45.5q77 0 122.5 -42t69.5 -136h-372zM283 1405q-74 0 -115 -47.5t-41 -110.5q0 -64 41 -110.5t115 -46.5q70 0 108.5 46t38.5 111q0 64 -39 111t-108 47zM678 1405q-73 0 -114.5 -47t-41.5 -111t41 -110.5t115 -46.5q70 0 110 47t40 110
t-40 110.5t-110 47.5z" />
    <glyph glyph-name="igrave" unicode="&#xec;" horiz-adv-x="346" 
d="M29 0h293v914h-293v-914zM-180 1374l283 -297h199l-165 297h-317z" />
    <glyph glyph-name="iacute" unicode="&#xed;" horiz-adv-x="346" 
d="M29 0h293v914h-293v-914zM-20 1077h209l293 297h-330z" />
    <glyph glyph-name="icircumflex" unicode="&#xee;" horiz-adv-x="346" 
d="M29 0h293v914h-293v-914zM-149 1086h202l119 149l121 -149h205l-197 293h-268z" />
    <glyph glyph-name="idieresis" unicode="&#xef;" horiz-adv-x="346" 
d="M29 0h293v914h-293v-914zM-25 1405q-72 0 -111.5 -47t-39.5 -111t39 -110q40 -47 112 -47q71 0 110.5 47t39.5 110t-40 110.5t-110 47.5zM369 1405q-72 0 -112 -46.5t-40 -108.5q0 -66 40 -113t112 -47q71 0 110 46t39 111q0 64 -39.5 111t-109.5 47z" />
    <glyph glyph-name="ntilde" unicode="&#xf1;" 
d="M29 0v914h297v-86q80 51 129 68q48 18 113 18q160 0 246.5 -90.5t86.5 -258.5v-565h-288v514q0 69 -41.5 114.5t-102.5 45.5q-47 0 -147 -63v-611h-293zM134 1260q95 121 216 121q63 0 136 -35q51 -25 75 -25q45 0 93 53l139 -122q-57 -71 -104 -108.5t-109 -37.5
q-23 0 -48 6.5t-45 15.5t-29 13q-77 35 -110 35q-51 0 -94 -51z" />
    <glyph glyph-name="ograve" unicode="&#xf2;" horiz-adv-x="1051" 
d="M527 942q-140 0 -257 -63.5t-185 -176.5t-68 -253q0 -142 65 -249q66 -107 179 -163q113 -58 253 -58q127 0 226.5 34t160.5 98q65 60 100 150q36 90 36 192q0 106 -37 196.5t-105 156t-162 101t-206 35.5zM527 740q65 0 112.5 -41.5t71.5 -108t24 -139.5
q0 -114 -54.5 -197.5t-149.5 -83.5q-103 0 -160.5 85.5t-57.5 201.5q0 72 24.5 137t73.5 105.5t116 40.5zM168 1374l287 -297h199l-168 297h-318z" />
    <glyph glyph-name="oacute" unicode="&#xf3;" horiz-adv-x="1051" 
d="M527 942q-140 0 -257 -63.5t-185 -176.5t-68 -253q0 -142 65 -249q66 -107 179 -163q113 -58 253 -58q127 0 226.5 34t160.5 98q65 60 100 150q36 90 36 192q0 106 -37 196.5t-105 156t-162 101t-206 35.5zM527 740q65 0 112.5 -41.5t71.5 -108t24 -139.5
q0 -114 -54.5 -197.5t-149.5 -83.5q-103 0 -160.5 85.5t-57.5 201.5q0 72 24.5 137t73.5 105.5t116 40.5zM329 1077h209l294 297h-326z" />
    <glyph glyph-name="ocircumflex" unicode="&#xf4;" horiz-adv-x="1051" 
d="M527 942q-140 0 -257 -63.5t-185 -176.5t-68 -253q0 -142 65 -249q66 -107 179 -163q113 -58 253 -58q127 0 226.5 34t160.5 98q65 60 100 150q36 90 36 192q0 106 -37 196.5t-105 156t-162 101t-206 35.5zM527 740q65 0 112.5 -41.5t71.5 -108t24 -139.5
q0 -114 -54.5 -197.5t-149.5 -83.5q-103 0 -160.5 85.5t-57.5 201.5q0 72 24.5 137t73.5 105.5t116 40.5zM201 1086h207l119 149l116 -149h205l-194 293h-275z" />
    <glyph glyph-name="otilde" unicode="&#xf5;" horiz-adv-x="1051" 
d="M527 942q-140 0 -257 -63.5t-185 -176.5t-68 -253q0 -142 65 -249q66 -107 179 -163q113 -58 253 -58q127 0 226.5 34t160.5 98q65 60 100 150q36 90 36 192q0 106 -37 196.5t-105 156t-162 101t-206 35.5zM527 740q65 0 112.5 -41.5t71.5 -108t24 -139.5
q0 -114 -54.5 -197.5t-149.5 -83.5q-103 0 -160.5 85.5t-57.5 201.5q0 72 24.5 137t73.5 105.5t116 40.5zM197 1260l116 -135q43 51 95 51q23 0 49 -9.5t62.5 -25.5t66.5 -25q31 -10 61 -10q100 0 205 146l-139 122q-48 -51 -90 -51q-33 0 -74 23q-75 37 -141 37
q-128 0 -211 -123z" />
    <glyph glyph-name="odieresis" unicode="&#xf6;" horiz-adv-x="1051" 
d="M527 942q-140 0 -257 -63.5t-185 -176.5t-68 -253q0 -142 65 -249q66 -107 179 -163q113 -58 253 -58q127 0 226.5 34t160.5 98q65 60 100 150q36 90 36 192q0 106 -37 196.5t-105 156t-162 101t-206 35.5zM527 740q65 0 112.5 -41.5t71.5 -108t24 -139.5
q0 -114 -54.5 -197.5t-149.5 -83.5q-103 0 -160.5 85.5t-57.5 201.5q0 72 24.5 137t73.5 105.5t116 40.5zM326 1405q-73 0 -114.5 -47.5t-41.5 -110.5t41.5 -110t114.5 -47q70 0 108.5 46t38.5 111q0 64 -39 111t-108 47zM721 1405q-72 0 -114 -47.5t-42 -110.5t42 -110
t114 -47q70 0 109 46.5t39 110.5q0 63 -39 110.5t-109 47.5z" />
    <glyph glyph-name="oslash" unicode="&#xf8;" horiz-adv-x="1051" 
d="M189 68q131 -95 331 -95q112 0 215.5 35.5t169.5 102.5q129 125 129 332q0 96 -31 186q-32 91 -89 156l131 118l-70 82l-135 -133q-136 86 -311 86q-102 0 -194.5 -32t-166.5 -96q-75 -63 -117.5 -155t-42.5 -206q0 -182 107 -307l-132 -125l68 -73zM368 246l345 336
q14 -54 14 -127q0 -75 -19.5 -139.5t-64.5 -105t-116 -40.5q-96 0 -159 76zM662 682l-332 -329q-15 48 -15 112q0 111 52 193t155 82q82 0 140 -58z" />
    <glyph glyph-name="ugrave" unicode="&#xf9;" 
d="M604 80v-80h293v914h-288v-609q-10 -7 -26 -19t-28 -20q-43 -30 -92 -30q-61 0 -103 46.5t-42 117.5v514h-293v-570q0 -92 19.5 -147t70.5 -105q89 -92 227 -92q134 0 262 80zM111 1374l280 -297h206l-169 297h-317z" />
    <glyph glyph-name="uacute" unicode="&#xfa;" 
d="M604 80v-80h293v914h-288v-609q-10 -7 -26 -19t-28 -20q-43 -30 -92 -30q-61 0 -103 46.5t-42 117.5v514h-293v-570q0 -92 19.5 -147t70.5 -105q89 -92 227 -92q134 0 262 80zM271 1077h206l295 297h-323z" />
    <glyph glyph-name="ucircumflex" unicode="&#xfb;" 
d="M604 80v-80h293v914h-288v-609q-10 -7 -26 -19t-28 -20q-43 -30 -92 -30q-61 0 -103 46.5t-42 117.5v514h-293v-570q0 -92 19.5 -147t70.5 -105q89 -92 227 -92q134 0 262 80zM142 1086h208l115 149l115 -149h209l-193 293h-274z" />
    <glyph glyph-name="udieresis" unicode="&#xfc;" 
d="M604 80v-80h293v914h-288v-609q-10 -7 -26 -19t-28 -20q-43 -30 -92 -30q-61 0 -103 46.5t-42 117.5v514h-293v-570q0 -92 19.5 -147t70.5 -105q89 -92 227 -92q134 0 262 80zM266 1405q-73 0 -114 -47.5t-41 -110.5q0 -64 40.5 -110.5t114.5 -46.5q69 0 107 46
q39 47 39 111t-39 111t-107 47zM662 1405q-72 0 -113 -47q-40 -48 -40 -111q0 -64 40 -110.5t113 -46.5q70 0 110 46q39 47 39 111t-40 111t-109 47z" />
    <glyph glyph-name="yacute" unicode="&#xfd;" horiz-adv-x="1012" 
d="M0 914l365 -785l-250 -604h317l144 356l432 1033h-318l-172 -469l-184 469h-334zM309 1077h209l294 297h-326z" />
    <glyph glyph-name="ydieresis" unicode="&#xff;" horiz-adv-x="1012" 
d="M0 914l365 -785l-250 -604h317l144 356l432 1033h-318l-172 -469l-184 469h-334zM305 1405q-72 0 -112.5 -47.5t-40.5 -110.5q0 -64 40 -110q41 -47 113 -47q70 0 109 46t39 111q0 64 -39 111t-109 47zM703 1405q-74 0 -115 -47.5t-41 -110.5q0 -64 41 -110.5t115 -46.5
q70 0 108.5 46t38.5 111q0 64 -39 111t-108 47z" />
    <glyph glyph-name="OE" unicode="&#x152;" horiz-adv-x="1884" 
d="M1874 0v246h-588v356h553v246h-553v328h576v246h-103h-1026q-154 0 -285 -52q-131 -51 -227 -146q-95 -96 -148 -227t-53 -286q0 -151 54 -291.5t145 -232.5q59 -57 138.5 -99t169 -65t172.5 -23h149h1026zM951 246q-126 0 -216 16.5t-172 69.5q-186 132 -186 358
q0 98 39 191q40 93 115.5 164t175.5 103q91 28 244 28v-930z" />
    <glyph glyph-name="oe" unicode="&#x153;" horiz-adv-x="1624" 
d="M858 72q147 -95 332 -95q216 0 410 130v199q-68 -45 -162.5 -75t-181.5 -30q-106 0 -179 48.5t-90 154.5h637q0 259 -131 404q-130 132 -315 132q-165 0 -326 -104q-86 59 -154.5 82.5t-162.5 23.5q-110 0 -206 -33.5t-169 -97.5t-114 -156q-42 -91 -42 -202
q0 -143 65 -253q65 -109 184 -169t274 -60q92 0 163 22.5t168 78.5zM522 740q99 0 156 -86t57 -201q0 -116 -55 -199.5t-153 -83.5q-105 0 -163.5 84.5t-58.5 202.5q0 114 58 198.5t159 84.5zM987 561q11 74 37 113q50 63 131 63q71 0 129 -49.5t66 -126.5h-363z" />
    <glyph glyph-name="circumflex" unicode="&#x2c6;" horiz-adv-x="258" 
d="M-321 1086h202l119 149l119 -149h203l-193 293h-271z" />
    <glyph glyph-name="tilde" unicode="&#x2dc;" horiz-adv-x="258" 
d="M-329 1260l120 -135q43 51 94 51q23 0 49.5 -9.5t63.5 -25.5q38 -17 67 -26t58 -9q102 0 203 146l-137 122q-52 -51 -95 -51q-33 0 -69 23q-72 37 -136 37q-119 0 -218 -123z" />
    <glyph glyph-name="emdash" unicode="&#x2013;" horiz-adv-x="1102" 
d="M17 328h41h1024v283h-37h-1028v-283z" />
    <glyph glyph-name="endash" unicode="&#x2014;" horiz-adv-x="1102" 
d="M17 328h41h1024v283h-37h-1028v-283z" />
    <glyph glyph-name="quoteleft" unicode="&#x2018;" horiz-adv-x="391" 
d="M275 1106v10v9q0 73 18 122t64 103v72q-98 -11 -175.5 -65.5t-120.5 -140.5q-44 -85 -44 -182v-16q0 -99 50 -172.5t148 -73.5q76 0 115 44.5t39 109.5q0 53 -24 102.5t-70 77.5z" />
    <glyph glyph-name="quoteright" unicode="&#x2019;" horiz-adv-x="391" 
d="M119 1090v-8v-9q0 -75 -18 -122t-68 -107v-72q97 12 176 68q79 57 123.5 145t44.5 191q0 70 -26 127t-73 90t-106 33q-75 0 -117.5 -50t-42.5 -118q0 -54 28 -100.5t79 -67.5z" />
    <glyph glyph-name="quotedblleft" unicode="&#x201c;" horiz-adv-x="789" 
d="M266 1106v10v9q0 72 18 121t62 104v72q-102 -11 -179.5 -70t-120 -150.5t-42.5 -195.5q0 -100 59.5 -167t145.5 -67q74 0 113 46.5t39 113.5q0 54 -24.5 101.5t-70.5 72.5zM670 1106v10v9q0 73 19 121.5t67 103.5v72q-104 -11 -182 -69t-120 -150t-42 -197
q0 -101 58 -167.5t147 -66.5q68 0 116 49t48 121q0 101 -111 164z" />
    <glyph glyph-name="quotedblright" unicode="&#x201d;" horiz-adv-x="789" 
d="M115 1090v-8v-9q0 -76 -19 -126q-18 -51 -67 -103v-72q92 8 171 67q80 58 126.5 147.5t46.5 185.5q0 72 -26.5 130.5t-71.5 90.5q-46 33 -103 33q-73 0 -118.5 -50.5t-45.5 -128.5q0 -108 107 -157zM518 1090v-8v-9q0 -76 -17.5 -126t-64.5 -103v-72q93 8 172.5 66.5
t126 148.5t46.5 185q0 110 -59.5 182t-145.5 72q-71 0 -118 -51q-46 -50 -46 -128q0 -99 106 -157z" />
    <glyph glyph-name="quotedblbase" unicode="&#x201e;" horiz-adv-x="789" 
d="M115 -21v-12v-8q0 -73 -19 -123q-18 -50 -67 -107v-69q89 8 168 67q80 59 128 148.5t48 180.5q0 72 -26.5 130.5t-72 92t-102.5 33.5q-74 0 -119 -53t-45 -124q0 -51 27.5 -94t79.5 -62zM519 -21v-12v-8q0 -73 -18 -123t-64 -107l-1 -69q90 8 169.5 67t128.5 148
q47 89 47 181q0 110 -59.5 183t-145.5 73q-76 0 -119 -51t-43 -121q0 -52 27.5 -96.5t77.5 -64.5z" />
    <glyph glyph-name="dagger" unicode="&#x2020;" horiz-adv-x="1102" 
d="M465 865q-11 -147 -24.5 -309.5t-24.5 -284.5q-11 -121 -28 -275q-16 -153 -31 -271q0 -57 24 -81q25 -25 84 -25h189q111 0 111 102q-16 131 -31 278t-28 292t-26 297.5t-26 276.5l354 -80q7 0 21 -1t20 -1q31 0 41 36q0 28 4 81t4 81q0 59 -16 109q0 20 -66 20
l-364 -92l70 436q0 68 -91 68h-154q-90 0 -90 -68l78 -436l-336 88q-19 8 -43 8q-46 0 -57 -49q-2 -16 -10.5 -78.5t-8.5 -99.5q0 -82 31 -111q6 -8 27 -8q10 0 20 1.5t19 3.5q10 2 20 3z" />
    <glyph glyph-name="perthousand" unicode="&#x2030;" horiz-adv-x="2200" 
d="M357 1434q-76 0 -146.5 -28t-116.5 -77q-46 -46 -72 -119t-26 -153q0 -193 123 -289q80 -80 231 -80q167 0 263 93q106 115 106 272q0 98 -45 186t-127.5 141.5t-189.5 53.5zM51 8h197l297 369l827 1036h-180l-303 -366zM357 1284q73 0 114 -65.5t41 -155.5
q0 -91 -41.5 -157.5t-113.5 -66.5q-74 0 -115.5 66.5t-41.5 157.5q0 89 41.5 155t115.5 66zM1082 735q-76 0 -148 -26.5t-119 -73.5q-96 -115 -96 -278q0 -186 125 -285q92 -80 240 -80q164 0 258 100q106 107 106 258q0 97 -46.5 187t-130.5 144t-189 54zM1082 582
q71 0 111 -64t40 -153t-40.5 -156t-110.5 -67q-71 0 -111.5 66t-40.5 155q0 88 40.5 153.5t111.5 65.5zM1839 735q-78 0 -150 -26t-122 -74q-93 -108 -93 -268q0 -87 33.5 -168t96.5 -131q91 -76 233 -76q167 0 264 100q103 109 103 261q0 98 -46 186t-129.5 142t-189.5 54z
M1839 582q74 0 114 -64.5t40 -154.5t-41 -155q-40 -66 -113 -66q-74 0 -115 66q-42 67 -42 155t41.5 153.5t115.5 65.5z" />
    <glyph glyph-name="guilsinglleft" unicode="&#x2039;" horiz-adv-x="522" 
d="M-12 445l287 -389h252l-295 389l299 411h-252z" />
    <glyph glyph-name="guilsinglright" unicode="&#x203a;" horiz-adv-x="522" 
d="M-16 856l308 -411l-300 -389h263l284 389l-299 411h-256z" />
    </font>
</defs>
</svg>
